(FFmpeg) Convertire video per Iphone da AVI a MP4-MOV

 

Utilizzando FFmpeg con questi parametri, per convertire il formato AVI in MP4-MOV, può risultare utile, in quanto si potrà utilizzare il video player di default dell' Iphone, senza quindi ricorrere a player esterni, anche se sarebbe meglio averne uno che leggesse tutti i formati video.

 

$ ffmpeg -i input.avi -f mov -acodec libmp3lame -ab 128k -ar 48000 -ac 2 -vcodec libx264 output.mov

$ ffmpeg -i input.avi -f mp4 -acodec libfaac -ab 128k -ar 48000 -ac 2 -vcodec libx264 output.mp4

 

enjoy 😉

Post simili (quasi):

2 pensieri riguardo “(FFmpeg) Convertire video per Iphone da AVI a MP4-MOV”

  1. Unknown Unknown Unknown Unknown

    [libx264 @ 0xed3870]broken ffmpeg default settings detected
    [libx264 @ 0xed3870]use an encoding preset (vpre)
    Output #0, mov, to ‘output.mov’:
    Stream #0.0: Video: libx264, yuv420p, 624×352 [PAR 1:1 DAR 39:22], q=2-31, 200 kb/s, 90k tbn, 25 tbc
    Stream #0.1: Audio: libmp3lame, 44100 Hz, 2 channels, s16, 160 kb/s

Lascia un commento

Il tuo indirizzo email non sarà pubblicato. I campi obbligatori sono contrassegnati *